<?xml version="1.0" standalone="no"?>
<!DOCTYPE svg PUBLIC "-//W3C//DTD SVG 1.1//EN" "http://www.w3.org/Graphics/SVG/1.1/DTD/svg11.dtd" >
<svg xmlns="http://www.w3.org/2000/svg">
<metadata>
This is a custom SVG font generated by IcoMoon.
<iconset grid="16"></iconset>
</metadata>
<defs>
<font id="icomoon" horiz-adv-x="512" >
<font-face units-per-em="512" ascent="480" descent="-32" />
<missing-glyph horiz-adv-x="512" />
<glyph unicode="&#xe034;" d="M 464.00,416.00L 256.00,416.00L 240.00,448.00L 64.00,448.00L 32.00,384.00L 480.00,384.00 zM 452.17,128.00l 37.43,0.00 L 512.00,352.00L0.00,352.00 l 32.00-320.00l 242.04,0.00 C 221.599,50.888, 184.00,101.133, 184.00,160.00c0.00,74.991, 61.009,136.00, 136.00,136.00
	c 74.99,0.00, 136.00-61.009, 136.00-136.00C 456.00,149.161, 454.689,138.425, 452.17,128.00zM 501.498,23.125l-99.248,87.346C 410.977,124.931, 416.00,141.878, 416.00,160.00c0.00,53.02-42.98,96.00-96.00,96.00s-96.00-42.98-96.00-96.00
	s 42.98-96.00, 96.00-96.00c 18.122,0.00, 35.069,5.023, 49.529,13.75l 87.346-99.248c 11.481-13.339, 31.059-14.07, 43.503-1.626l 2.746,2.746
	C 515.568-7.934, 514.837,11.644, 501.498,23.125z M 320.00,98.00c-34.242,0.00-62.00,27.758-62.00,62.00s 27.758,62.00, 62.00,62.00s 62.00-27.758, 62.00-62.00
	S 354.242,98.00, 320.00,98.00z" />
<glyph unicode="&#xe032;" d="M 384.00,352.00L 416.00,352.00L 416.00,320.00L 384.00,320.00zM 320.00,288.00L 352.00,288.00L 352.00,256.00L 320.00,256.00zM 320.00,224.00L 352.00,224.00L 352.00,192.00L 320.00,192.00zM 320.00,160.00L 352.00,160.00L 352.00,128.00L 320.00,128.00zM 256.00,224.00L 288.00,224.00L 288.00,192.00L 256.00,192.00zM 256.00,160.00L 288.00,160.00L 288.00,128.00L 256.00,128.00zM 192.00,160.00L 224.00,160.00L 224.00,128.00L 192.00,128.00zM 384.00,288.00L 416.00,288.00L 416.00,256.00L 384.00,256.00zM 384.00,224.00L 416.00,224.00L 416.00,192.00L 384.00,192.00zM 384.00,160.00L 416.00,160.00L 416.00,128.00L 384.00,128.00zM 384.00,96.00L 416.00,96.00L 416.00,64.00L 384.00,64.00zM 320.00,96.00L 352.00,96.00L 352.00,64.00L 320.00,64.00zM 256.00,96.00L 288.00,96.00L 288.00,64.00L 256.00,64.00zM 192.00,96.00L 224.00,96.00L 224.00,64.00L 192.00,64.00zM 128.00,96.00L 160.00,96.00L 160.00,64.00L 128.00,64.00z" data-tags="resize, dots" />
<glyph unicode="&#xe031;" d="M 416.00,352.00l-96.00,0.00 L 320.00,384.00 L 224.00,480.00L0.00,480.00 l0.00-384.00 l 192.00,0.00 l0.00-128.00 l 320.00,0.00 L 512.00,256.00 L 416.00,352.00z M 416.00,306.745L 466.745,256.00L 416.00,256.00 L 416.00,306.745 z M 224.00,434.745L 274.745,384.00L 224.00,384.00 
	L 224.00,434.745 z M 32.00,448.00l 160.00,0.00 l0.00-96.00 l 96.00,0.00 l0.00-224.00 L 32.00,128.00 L 32.00,448.00 z M 480.00,0.00L 224.00,0.00 l0.00,96.00 l 96.00,0.00 L 320.00,320.00 l 64.00,0.00 l0.00-96.00 l 96.00,0.00 L 480.00,0.00 z" data-tags="copy" />
<glyph unicode="&#xe030;" d="M 128.00,448.00 L 384.00,448.00 L 384.00,384.00 L 320.00,384.00 L 320.00,0.00 L 256.00,0.00 L 256.00,384.00 L 192.00,384.00 L 192.00,0.00 L 128.00,0.00 L 128.00,224.00 C 66.144,224.00 16.00,274.144 16.00,336.00 C 16.00,397.856 66.144,448.00 128.00,448.00 ZM 480.00,32.00L 352.00,144.00L 480.00,256.00 z" data-tags="rtl" />
<glyph unicode="&#xe02f;" d="M 224.00,448.00 L 480.00,448.00 L 480.00,384.00 L 416.00,384.00 L 416.00,0.00 L 352.00,0.00 L 352.00,384.00 L 288.00,384.00 L 288.00,0.00 L 224.00,0.00 L 224.00,224.00 C 162.144,224.00 112.00,274.144 112.00,336.00 C 112.00,397.856 162.144,448.00 224.00,448.00 ZM 32.00,256.00L 160.00,144.00L 32.00,32.00 z" data-tags="ltr" />
<glyph unicode="&#xe02e;" d="M 192.00,448.00 L 448.00,448.00 L 448.00,384.00 L 384.00,384.00 L 384.00,0.00 L 320.00,0.00 L 320.00,384.00 L 256.00,384.00 L 256.00,0.00 L 192.00,0.00 L 192.00,224.00 C 130.144,224.00 80.00,274.144 80.00,336.00 C 80.00,397.856 130.144,448.00 192.00,448.00 Z" data-tags="visualchars" />
<glyph unicode="&#xe02d;" d="M 365.71,221.482 C 397.67,197.513 416.00,163.439 416.00,128.00 C 416.00,92.561 397.67,58.487 365.71,34.518 C 336.031,12.259 297.068,0.00 256.00,0.00 C 214.931,0.00 175.969,12.259 146.29,34.518 C 114.33,58.487 96.00,92.561 96.00,128.00 L 160.00,128.00 C 160.00,93.309 203.963,64.00 256.00,64.00 C 308.037,64.00 352.00,93.309 352.00,128.00 C 352.00,162.691 308.037,192.00 256.00,192.00 C 214.931,192.00 175.969,204.259 146.29,226.518 C 114.33,250.488 96.00,284.561 96.00,320.00 C 96.00,355.439 114.33,389.512 146.29,413.482 C 175.969,435.741 214.931,448.00 256.00,448.00 C 297.068,448.00 336.031,435.741 365.71,413.482 C 397.67,389.512 416.00,355.439 416.00,320.00 L 352.00,320.00 C 352.00,354.691 308.037,384.00 256.00,384.00 C 203.963,384.00 160.00,354.691 160.00,320.00 C 160.00,285.309 203.963,256.00 256.00,256.00 C 297.068,256.00 336.031,243.741 365.71,221.482 ZM0.00,224.00L 512.00,224.00L 512.00,192.00L0.00,192.00z" data-tags="strikethrough" />
<glyph unicode="&#xe02c;" d="M 352.00,448.00 L 416.00,448.00 L 416.00,240.00 C 416.00,160.471 344.366,96.00 256.00,96.00 C 167.635,96.00 96.00,160.471 96.00,240.00 L 96.00,448.00 L 160.00,448.00 L 160.00,240.00 C 160.00,219.917 169.119,200.648 185.677,185.747 C 204.125,169.145 229.10,160.00 256.00,160.00 C 282.90,160.00 307.875,169.145 326.323,185.747 C 342.881,200.648 352.00,219.917 352.00,240.00 L 352.00,448.00 ZM 96.00,64.00L 416.00,64.00L 416.00,0.00L 96.00,0.00z" data-tags="underline" />
<glyph unicode="&#xe02b;" d="M 448.00,448.00 L 448.00,416.00 L 384.00,416.00 L 224.00,32.00 L 288.00,32.00 L 288.00,0.00 L 64.00,0.00 L 64.00,32.00 L 128.00,32.00 L 288.00,416.00 L 224.00,416.00 L 224.00,448.00 Z" data-tags="italic" />
<glyph unicode="&#xe02a;" d="M 353.94,237.674C 372.689,259.945, 384.00,288.678, 384.00,320.00c0.00,70.58-57.421,128.00-128.00,128.00l-64.00,0.00 l-64.00,0.00 L 96.00,448.00 l0.00-448.00 l 32.00,0.00 l 64.00,0.00 l 96.00,0.00 
	c 70.579,0.00, 128.00,57.421, 128.00,128.00C 416.00,174.478, 391.101,215.248, 353.94,237.674z M 192.00,384.00l 50.75,0.00 c 27.984,0.00, 50.75-28.71, 50.75-64.00
	s-22.766-64.00-50.75-64.00L 192.00,256.00 L 192.00,384.00 z M 271.50,64.00L 192.00,64.00 L 192.00,192.00 l 79.50,0.00 c 29.225,0.00, 53.00-28.71, 53.00-64.00S 300.725,64.00, 271.50,64.00z" data-tags="bold0" />
<glyph unicode="&#xe029;" d="M 192.00,64.00L 288.00,64.00L 288.00-32.00L 192.00-32.00zM 400.00,448.00 C 426.51,448.00 448.00,426.51 448.00,400.00 L 448.00,256.00 L 288.00,160.00 L 288.00,96.00 L 192.00,96.00 L 192.00,192.00 L 352.00,288.00 L 352.00,352.00 L 96.00,352.00 L 96.00,448.00 L 400.00,448.00 Z" />
<glyph unicode="&#xe028;" d="M 288.00,448.00 C 411.712,448.00 512.00,347.712 512.00,224.00 C 512.00,100.288 411.712,0.00 288.00,0.00 L 288.00,48.00 C 335.012,48.00 379.209,66.307 412.451,99.549 C 445.693,132.791 464.00,176.988 464.00,224.00 C 464.00,271.011 445.693,315.209 412.451,348.451 C 379.209,381.693 335.012,400.00 288.00,400.00 C 240.989,400.00 196.791,381.693 163.549,348.451 C 137.979,322.882 121.258,290.828 114.896,256.00 L 208.00,256.00 L 96.00,128.00 L -16.00,256.00 L 66.285,256.00 C 81.815,364.551 175.154,448.00 288.00,448.00 ZM 384.00,256.00 L 384.00,192.00 L 256.00,192.00 L 256.00,352.00 L 320.00,352.00 L 320.00,256.00 Z" data-tags="restoredraft" />
<glyph unicode="&#xe027;" d="M0.00,224.00L 64.00,224.00L 64.00,192.00L0.00,192.00zM 96.00,224.00L 192.00,224.00L 192.00,192.00L 96.00,192.00zM 224.00,224.00L 288.00,224.00L 288.00,192.00L 224.00,192.00zM 320.00,224.00L 416.00,224.00L 416.00,192.00L 320.00,192.00zM 448.00,224.00L 512.00,224.00L 512.00,192.00L 448.00,192.00zM 440.00,480.00 L 448.00,256.00 L 64.00,256.00 L 72.00,480.00 L 88.00,480.00 L 96.00,288.00 L 416.00,288.00 L 424.00,480.00 ZM 72.00-32.00 L 64.00,160.00 L 448.00,160.00 L 440.00-32.00 L 424.00-32.00 L 416.00,128.00 L 96.00,128.00 L 88.00-32.00 Z" data-tags="pagebreak" />
<glyph unicode="&#xe026;" d="M 192.00,384.00L 256.00,384.00L 256.00,352.00L 192.00,352.00zM 288.00,384.00L 352.00,384.00L 352.00,352.00L 288.00,352.00zM 448.00,384.00 L 448.00,256.00 L 352.00,256.00 L 352.00,288.00 L 416.00,288.00 L 416.00,352.00 L 384.00,352.00 L 384.00,384.00 ZM 160.00,288.00L 224.00,288.00L 224.00,256.00L 160.00,256.00zM 256.00,288.00L 320.00,288.00L 320.00,256.00L 256.00,256.00zM 96.00,352.00 L 96.00,288.00 L 128.00,288.00 L 128.00,256.00 L 64.00,256.00 L 64.00,384.00 L 160.00,384.00 L 160.00,352.00 ZM 192.00,192.00L 256.00,192.00L 256.00,160.00L 192.00,160.00zM 288.00,192.00L 352.00,192.00L 352.00,160.00L 288.00,160.00zM 448.00,192.00 L 448.00,64.00 L 352.00,64.00 L 352.00,96.00 L 416.00,96.00 L 416.00,160.00 L 384.00,160.00 L 384.00,192.00 ZM 160.00,96.00L 224.00,96.00L 224.00,64.00L 160.00,64.00zM 256.00,96.00L 320.00,96.00L 320.00,64.00L 256.00,64.00zM 96.00,160.00 L 96.00,96.00 L 128.00,96.00 L 128.00,64.00 L 64.00,64.00 L 64.00,192.00 L 160.00,192.00 L 160.00,160.00 ZM 480.00,448.00 L 32.00,448.00 L 32.00,0.00 L 480.00,0.00 L 480.00,448.00 Z M 512.00,480.00 L 512.00,480.00 L 512.00-32.00 L 0.00-32.00 L 0.00,480.00 L 512.00,480.00 Z" data-tags="template" />
<glyph unicode="&#xe025;" d="M 224.00,192.00 L 128.00,192.00 L 128.00,256.00 L 224.00,256.00 L 224.00,352.00 L 288.00,352.00 L 288.00,256.00 L 384.00,256.00 L 384.00,192.00 L 288.00,192.00 L 288.00,96.00 L 224.00,96.00 ZM 512.00,160.00 L 512.00-32.00 L 0.00-32.00 L 0.00,160.00 L 64.00,160.00 L 64.00,32.00 L 448.00,32.00 L 448.00,160.00 Z" data-tags="nonbreaking" />
<glyph unicode="&#xe024;" d="M 64.00,352.00l 64.00,0.00 l0.00-96.00 l 32.00,0.00 L 160.00,448.00 c0.00,17.60-14.40,32.00-32.00,32.00L 64.00,480.00 C 46.40,480.00, 32.00,465.60, 32.00,448.00l0.00-192.00 l 32.00,0.00 L 64.00,352.00 z M 64.00,448.00l 64.00,0.00 l0.00-64.00 L 64.00,384.00 L 64.00,448.00 z M 480.00,448.00L 480.00,480.00 l-96.00,0.00 
	c-17.601,0.00-32.00-14.40-32.00-32.00l0.00-160.00 c0.00-17.60, 14.399-32.00, 32.00-32.00l 96.00,0.00 l0.00,32.00 l-96.00,0.00 L 384.00,448.00 L 480.00,448.00 z M 320.00,400.00L 320.00,448.00 c0.00,17.60-14.40,32.00-32.00,32.00l-96.00,0.00 l0.00-224.00 l 96.00,0.00 
	c 17.60,0.00, 32.00,14.40, 32.00,32.00l0.00,48.00 c0.00,17.60-4.40,32.00-22.00,32.00C 315.60,368.00, 320.00,382.40, 320.00,400.00z M 288.00,288.00l-64.00,0.00 l0.00,64.00 l 64.00,0.00 L 288.00,288.00 z M 288.00,384.00l-64.00,0.00 L 224.00,448.00 l 64.00,0.00 L 288.00,384.00 zM 416.00,192.00 L 208.00-32.00 L 96.00,112.00 L 137.00,147.00 L 208.00,73.00 L 384.00,224.00 Z" data-tags="spellchecker" />
<glyph unicode="&#xe023;" d="M 512.00,480.00 L 512.00,288.00 L 442.87,357.13 L 336.87,251.13 L 283.13,304.87 L 389.13,410.87 L 320.00,480.00 ZM 122.87,410.87 L 228.87,304.87 L 175.13,251.13 L 69.13,357.13 L 0.00,288.00 L 0.00,480.00 L 192.00,480.00 ZM 442.87,90.87 L 512.00,160.00 L 512.00-32.00 L 320.00-32.00 L 389.13,37.13 L 283.13,143.13 L 336.87,196.87 ZM 228.87,143.13 L 122.87,37.13 L 192.00-32.00 L 0.00-32.00 L 0.00,160.00 L 69.13,90.87 L 175.13,196.87 Z" data-tags="fullscreen" />
<glyph unicode="&#xe022;" d="M 128.00,448.00L 384.00,448.00L 384.00,384.00L 128.00,384.00zM 480.00,352.00L 32.00,352.00 C 14.40,352.00,0.00,337.60,0.00,320.00l0.00-160.00 c0.00-17.60, 14.398-32.00, 32.00-32.00l 96.00,0.00 l0.00-128.00 l 256.00,0.00 L 384.00,128.00 l 96.00,0.00 c 17.60,0.00, 32.00,14.40, 32.00,32.00L 512.00,320.00 
		C 512.00,337.60, 497.60,352.00, 480.00,352.00z M 352.00,32.00L 160.00,32.00 L 160.00,192.00 l 192.00,0.00 L 352.00,32.00 z M 487.20,304.00c0.00-12.813-10.387-23.20-23.199-23.20
		c-12.813,0.00-23.201,10.387-23.201,23.20s 10.388,23.20, 23.201,23.20C 476.814,327.20, 487.20,316.813, 487.20,304.00z" data-tags="print" />
<glyph unicode="&#xe021;" d="M 256.00,480.00C 114.615,480.00,0.00,365.386,0.00,224.00c0.00-141.385, 114.614-256.00, 256.00-256.00c 141.385,0.00, 256.00,114.615, 256.00,256.00
	C 512.00,365.386, 397.385,480.00, 256.00,480.00z M 256.00,8.00c-119.293,0.00-216.00,96.706-216.00,216.00c0.00,119.293, 96.707,216.00, 216.00,216.00c 119.295,0.00, 216.00-96.707, 216.00-216.00
	C 472.00,104.706, 375.295,8.00, 256.00,8.00z M 192.00,320.00c0.00-17.673-14.327-32.00-32.00-32.00s-32.00,14.327-32.00,32.00s 14.327,32.00, 32.00,32.00S 192.00,337.673, 192.00,320.00z
	 M 384.00,320.00c0.00-17.673-14.326-32.00-32.00-32.00s-32.00,14.327-32.00,32.00s 14.326,32.00, 32.00,32.00S 384.00,337.673, 384.00,320.00zM 256.00,154.00 C 326.537,154.00 387.344,182.766 415.231,215.596 C 404.795,129.986 337.087,64.00 256.00,64.00 C 174.941,64.00 107.251,130.013 96.778,215.584 C 124.671,182.761 185.471,154.00 256.00,154.00 Z" data-tags="emoticons" />
<glyph unicode="&#xe020;" d="M 352.00,32.00 L 480.00,32.00 L 512.00,96.00 L 512.00-32.00 L 320.00-32.00 L 320.00,75.107 C 385.556,103.349 432.00,173.688 432.00,256.00 C 432.00,363.216 353.201,447.133 256.00,447.133 C 158.797,447.133 80.00,363.217 80.00,256.00 C 80.00,173.688 126.443,103.349 192.00,75.107 L 192.00-32.00 L 0.00-32.00 L 0.00,96.00 L 32.00,32.00 L 160.00,32.00 L 160.00,48.295 C 66.185,81.525 0.00,161.996 0.00,256.00 C 0.00,379.712 114.615,480.00 256.00,480.00 C 397.385,480.00 512.00,379.712 512.00,256.00 C 512.00,161.996 445.815,81.525 352.00,48.295 L 352.00,32.00 Z" data-tags="charmap" />
<glyph unicode="&#xe01f;" d="M 384.00,377.00 L 384.00,352.00 L 448.00,352.00 L 448.00,320.00 L 352.00,320.00 L 352.00,393.00 L 416.00,423.00 L 416.00,448.00 L 352.00,448.00 L 352.00,480.00 L 448.00,480.00 L 448.00,407.00 ZM 338.00,352.00L 270.00,352.00L 176.00,258.00L 82.00,352.00L 14.00,352.00L 142.00,224.00L 14.00,96.00L 82.00,96.00L 176.00,190.00L 270.00,96.00L 338.00,96.00L 210.00,224.00 z" data-tags="sup" />
<glyph unicode="&#xe01e;" d="M 384.00,25.00 L 384.00,0.00 L 448.00,0.00 L 448.00-32.00 L 352.00-32.00 L 352.00,41.00 L 416.00,71.00 L 416.00,96.00 L 352.00,96.00 L 352.00,128.00 L 448.00,128.00 L 448.00,55.00 ZM 338.00,352.00L 270.00,352.00L 176.00,258.00L 82.00,352.00L 14.00,352.00L 142.00,224.00L 14.00,96.00L 82.00,96.00L 176.00,190.00L 270.00,96.00L 338.00,96.00L 210.00,224.00 z" data-tags="sub" />
<glyph unicode="&#xe01d;" d="M0.00,32.00L 288.00,32.00L 288.00-32.00L0.00-32.00zM 96.00,480.00L 448.00,480.00L 448.00,416.00L 96.00,416.00zM 138.694,64.00 L 241.038,456.082 L 302.963,439.918 L 204.838,64.00 ZM 464.887-32.00 L 400.00,32.887 L 335.113-32.00 L 304.00-0.887 L 368.887,64.00 L 304.00,128.887 L 335.113,160.00 L 400.00,95.113 L 464.887,160.00 L 496.00,128.887 L 431.113,64.00 L 496.00-0.887 Z" data-tags="removeformat" />
<glyph unicode="&#xe01c;" d="M0.00,256.00L 512.00,256.00L 512.00,192.00L0.00,192.00z" data-tags="hr" />
<glyph unicode="&#xe01b;" d="M0.00,448.00l0.00-448.00 l 512.00,0.00 L 512.00,448.00 L0.00,448.00 z M 192.00,160.00l0.00,96.00 l 128.00,0.00 l0.00-96.00 L 192.00,160.00 z M 320.00,128.00l0.00-96.00 L 192.00,32.00 l0.00,96.00 L 320.00,128.00 z M 320.00,384.00l0.00-96.00 L 192.00,288.00 L 192.00,384.00 L 320.00,384.00 z M 160.00,384.00l0.00-96.00 L 32.00,288.00 L 32.00,384.00 L 160.00,384.00 z
	 M 32.00,256.00l 128.00,0.00 l0.00-96.00 L 32.00,160.00 L 32.00,256.00 z M 352.00,256.00l 128.00,0.00 l0.00-96.00 L 352.00,160.00 L 352.00,256.00 z M 352.00,288.00L 352.00,384.00 l 128.00,0.00 l0.00-96.00 L 352.00,288.00 z M 32.00,128.00l 128.00,0.00 l0.00-96.00 L 32.00,32.00 L 32.00,128.00 z M 352.00,32.00l0.00,96.00 l 128.00,0.00 l0.00-96.00 L 352.00,32.00 z" data-tags="table" />
<glyph unicode="&#xe01a;" d="M 161.009,64.00l 28.80,96.00l 132.382,0.00 l 28.80-96.00l 56.816,0.00 L 311.809,384.00L 200.191,384.00 l-96.00-320.00L 161.009,64.00 z M 237.809,320.00l 36.382,0.00 l 28.80-96.00l-93.982,0.00 
	L 237.809,320.00z" data-tags="forecolor" />
<glyph unicode="&#xe019;" d="M 256.00,320.00C 151.316,320.00, 58.378,269.722,0.00,192.00c 58.378-77.723, 151.316-128.00, 256.00-128.00c 104.684,0.00, 197.622,50.277, 256.00,128.00
	C 453.622,269.722, 360.684,320.00, 256.00,320.00z M 224.00,256.00c 17.673,0.00, 32.00-14.327, 32.00-32.00s-14.327-32.00-32.00-32.00s-32.00,14.327-32.00,32.00S 206.327,256.00, 224.00,256.00z
	 M 386.808,127.352c-19.824-10.129-40.826-17.931-62.423-23.188C 302.141,98.746, 279.134,96.00, 256.00,96.00
	c-23.133,0.00-46.141,2.746-68.384,8.162c-21.597,5.259-42.599,13.061-62.423,23.188c-31.51,16.101-60.111,38.205-83.82,64.649
	c 23.709,26.444, 52.31,48.55, 83.82,64.649c 16.168,8.261, 33.121,14.973, 50.541,20.02C 165.79,261.547, 160.00,243.451, 160.00,224.00
	c0.00-53.02, 42.981-96.00, 96.00-96.00c 53.019,0.00, 96.00,42.98, 96.00,96.00c0.00,19.451-5.791,37.547-15.733,52.67c 17.419-5.048, 34.372-11.76, 50.541-20.021
	c 31.511-16.099, 60.109-38.204, 83.819-64.649C 446.917,165.557, 418.318,143.45, 386.808,127.352z M 430.459,358.139
	C 376.099,385.916, 317.403,400.00, 256.00,400.00c-61.403,0.00-120.099-14.084-174.459-41.861C 52.155,343.123, 24.675,324.187,0.00,302.101l0.00-54.603 
	c 27.669,29.283, 60.347,53.877, 96.097,72.145C 145.907,345.095, 199.706,358.00, 256.00,358.00s 110.093-12.905, 159.902-38.358
	c 35.751-18.268, 68.429-42.862, 96.098-72.145L 512.00,302.10 C 487.325,324.187, 459.846,343.123, 430.459,358.139z" data-tags="preview" />
<glyph unicode="&#xe018;" d="M 256.00,384.00C 149.962,384.00, 64.00,298.039, 64.00,192.00s 85.961-192.00, 192.00-192.00c 106.037,0.00, 192.00,85.961, 192.00,192.00S 362.037,384.00, 256.00,384.00z
		 M 357.822,90.177C 330.626,62.979, 294.464,48.00, 256.00,48.00s-74.625,14.979-101.823,42.177C 126.979,117.374, 112.00,153.536, 112.00,192.00
		s 14.979,74.625, 42.177,101.823C 181.375,321.021, 217.536,336.00, 256.00,336.00s 74.626-14.979, 101.821-42.177
		C 385.022,266.625, 400.00,230.464, 400.00,192.00S 385.021,117.374, 357.822,90.177zM 162.965,378.069l-21.47,42.939C 92.058,396.24, 51.76,355.942, 26.992,306.504l 42.938-21.47
		C 90.054,325.202, 122.796,357.945, 162.965,378.069zM 442.067,285.035l 42.939,21.469C 460.24,355.942, 419.943,396.24, 370.504,421.008l-21.472-42.939
		C 389.201,357.945, 421.944,325.203, 442.067,285.035zM 256.00,288.00l-32.00,0.00 l0.00-96.00 c0.00-5.055, 2.35-9.555, 6.011-12.486l-0.006-0.008l 80.00-64.00l 19.988,24.988L 256.00,199.689L 256.00,288.00 z" data-tags="inserttime" />
<glyph unicode="&#xe017;" d="M 160.00,352.00L 32.00,224.00L 160.00,96.00L 224.00,96.00L 96.00,224.00L 224.00,352.00 	zM 352.00,352.00L 288.00,352.00L 416.00,224.00L 288.00,96.00L 352.00,96.00L 480.00,224.00 	z" data-tags="code" />
<glyph unicode="&#xe016;" d="M 224.00,128.00L 288.00,128.00L 288.00,64.00L 224.00,64.00zM 352.00,352.00 C 369.673,352.00 384.00,337.673 384.00,320.00 L 384.00,224.00 L 288.00,160.00 L 224.00,160.00 L 224.00,192.00 L 320.00,256.00 L 320.00,288.00 L 160.00,288.00 L 160.00,352.00 L 352.00,352.00 ZM 256.00,432.00 C 200.441,432.00 148.208,410.364 108.922,371.078 C 69.636,331.792 48.00,279.559 48.00,224.00 C 48.00,168.441 69.636,116.208 108.922,76.922 C 148.208,37.636 200.441,16.00 256.00,16.00 C 311.559,16.00 363.792,37.636 403.078,76.922 C 442.364,116.208 464.00,168.441 464.00,224.00 C 464.00,279.559 442.364,331.792 403.078,371.078 C 363.792,410.364 311.559,432.00 256.00,432.00 Z M 256.00,480.00 L 256.00,480.00 C 397.385,480.00 512.00,365.385 512.00,224.00 C 512.00,82.615 397.385-32.00 256.00-32.00 C 114.615-32.00 0.00,82.615 0.00,224.00 C 0.00,365.385 114.615,480.00 256.00,480.00 Z" data-tags="help" />
<glyph unicode="&#xe015;" d="M0.00,416.00l0.00-384.00 l 512.00,0.00 L 512.00,416.00 L0.00,416.00 z M 96.00,64.00L 32.00,64.00 l0.00,64.00 l 64.00,0.00 L 96.00,64.00 z M 96.00,192.00L 32.00,192.00 l0.00,64.00 l 64.00,0.00 L 96.00,192.00 z M 96.00,320.00L 32.00,320.00 L 32.00,384.00 l 64.00,0.00 L 96.00,320.00 z M 384.00,64.00L 128.00,64.00 L 128.00,384.00 l 256.00,0.00 L 384.00,64.00 z
		 M 480.00,64.00l-64.00,0.00 l0.00,64.00 l 64.00,0.00 L 480.00,64.00 z M 480.00,192.00l-64.00,0.00 l0.00,64.00 l 64.00,0.00 L 480.00,192.00 z M 480.00,320.00l-64.00,0.00 L 416.00,384.00 l 64.00,0.00 L 480.00,320.00 zM 192.00,320.00L 192.00,128.00L 320.00,224.00 	z" data-tags="media" />
<glyph unicode="&#xe014;" d="M0.00,416.00l0.00-416.00 l 512.00,0.00 L 512.00,416.00 L0.00,416.00 z M 480.00,32.00L 32.00,32.00 L 32.00,384.00 l 448.00,0.00 L 480.00,32.00 zM 352.00,304.00A48.00,48.00 1620.00 1,0 448.00,304A48.00,48.00 1620.00 1,0 352.00,304zM 448.00,64.00 L 64.00,64.00 L 160.00,320.00 L 288.00,160.00 L 352.00,208.00 Z" data-tags="image" />
<glyph unicode="&#xe013;" d="M 96.00,480.00l0.00-512.00 l 160.00,160.00l 160.00-160.00L 416.00,480.00 L 96.00,480.00 z M 384.00,45.255l-128.00,128.00l-128.00-128.00L 128.00,448.00 l 256.00,0.00 L 384.00,45.255 z" data-tags="anchor" />
<glyph unicode="&#xe012;" d="M 238.444,142.443c 2.28-4.524, 3.495-9.579, 3.495-14.848c0.00-8.808-3.372-17.029-9.496-23.154l-81.69-81.69
		c-6.124-6.124-14.348-9.496-23.154-9.496s-17.03,3.372-23.154,9.496l-49.69,49.69c-6.124,6.125-9.496,14.348-9.496,23.154
		s 3.372,17.03, 9.496,23.154l 81.69,81.691c 6.124,6.123, 14.348,9.496, 23.154,9.496c 5.269,0.00, 10.322-1.215, 14.848-3.494l 32.669,32.668
		c-13.935,10.705-30.72,16.08-47.517,16.08c-19.993,0.00-39.986-7.583-55.154-22.751l-81.69-81.691
		c-30.335-30.335-30.335-79.975,0.00-110.309l 49.69-49.691c 15.167-15.166, 35.16-22.75, 55.153-22.75
		c 19.994,0.00, 39.987,7.584, 55.154,22.751l 81.69,81.69c 27.91,27.91, 30.119,72.149, 6.672,102.673L 238.444,142.443zM 489.248,407.558l-49.69,49.691C 424.391,472.417, 404.398,480.00, 384.404,480.00c-19.993,0.00-39.985-7.583-55.153-22.751l-81.691-81.691
		c-27.91-27.91-30.119-72.149-6.671-102.671l 32.669,32.67c-2.279,4.525-3.494,9.58-3.494,14.847c0.00,8.808, 3.372,17.03, 9.496,23.154
		l 81.691,81.691c 6.123,6.124, 14.347,9.497, 23.153,9.497c 8.808,0.00, 17.03-3.373, 23.154-9.497l 49.69-49.691
		c 6.124-6.124, 9.496-14.347, 9.496-23.154c0.00-8.807-3.372-17.03-9.496-23.154l-81.69-81.691c-6.124-6.124-14.347-9.496-23.154-9.496
		c-5.268,0.00-10.322,1.215-14.848,3.495l-32.669-32.669c 13.936-10.705, 30.72-16.08, 47.517-16.08c 19.994,0.00, 39.987,7.584, 55.154,22.752
		l 81.69,81.69C 519.584,327.584, 519.584,377.223, 489.248,407.558zM 116.684,340.688L 20.687,436.685L 43.315,459.313L 139.312,363.316zM 192.00,480.00L 224.00,480.00L 224.00,384.00L 192.00,384.00zM0.00,288.00L 96.00,288.00L 96.00,256.00L0.00,256.00zM 395.316,107.312L 491.314,11.314L 468.686-11.314L 372.688,84.684zM 288.00,64.00L 320.00,64.00L 320.00-32.00L 288.00-32.00zM 416.00,192.00L 512.00,192.00L 512.00,160.00L 416.00,160.00z" data-tags="unlink" />
<glyph unicode="&#xe011;" d="M 160.00,128.00c 8.80-8.80, 23.637-8.363, 32.971,0.971L 351.03,287.029C 360.364,296.363, 360.80,311.20, 352.00,320.00
		s-23.637,8.363-32.971-0.971L 160.971,160.971C 151.637,151.637, 151.20,136.80, 160.00,128.00zM 238.444,142.444c 2.28-4.525, 3.495-9.58, 3.495-14.848c0.00-8.808-3.372-17.03-9.496-23.154l-81.691-81.691
		c-6.124-6.124-14.347-9.496-23.154-9.496s-17.03,3.372-23.154,9.496l-49.691,49.691c-6.124,6.124-9.496,14.347-9.496,23.154
		s 3.372,17.03, 9.496,23.154l 81.691,81.691c 6.124,6.124, 14.347,9.497, 23.154,9.497c 5.268,0.00, 10.322-1.215, 14.848-3.495l 32.669,32.669
		c-13.935,10.705-30.72,16.08-47.517,16.08c-19.993,0.00-39.986-7.583-55.154-22.751l-81.691-81.691
		c-30.335-30.335-30.335-79.974,0.00-110.309l 49.691-49.691C 87.611-24.416, 107.604-32.00, 127.597-32.00
		c 19.994,0.00, 39.987,7.584, 55.154,22.751l 81.691,81.691c 27.91,27.91, 30.119,72.149, 6.672,102.672L 238.444,142.444zM 489.249,407.558l-49.691,49.691C 424.391,472.417, 404.398,480.00, 384.404,480.00c-19.993,0.00-39.986-7.583-55.154-22.751l-81.691-81.691
		c-27.91-27.91-30.119-72.149-6.671-102.671l 32.669,32.67c-2.279,4.525-3.494,9.58-3.494,14.847c0.00,8.808, 3.372,17.03, 9.496,23.154
		l 81.691,81.691c 6.124,6.124, 14.347,9.497, 23.154,9.497s 17.03-3.373, 23.154-9.497l 49.691-49.691
		c 6.124-6.124, 9.496-14.347, 9.496-23.154s-3.372-17.03-9.496-23.154l-81.691-81.691c-6.124-6.124-14.347-9.496-23.154-9.496
		c-5.268,0.00-10.322,1.215-14.848,3.495l-32.669-32.669c 13.936-10.705, 30.72-16.08, 47.517-16.08c 19.994,0.00, 39.987,7.584, 55.154,22.751
		l 81.691,81.691C 519.584,327.584, 519.584,377.223, 489.249,407.558z" data-tags="link" />
<glyph unicode="&#xe010;" d="M 288.00,355.814L 288.00,480.00 l 192.00-192.00L 288.00,96.00L 288.00,222.912 C 64.625,228.153, 74.206,71.016, 131.07-32.00
	C-9.286,119.707, 20.52,362.785, 288.00,355.814z" data-tags="redo" />
<glyph unicode="&#xe00f;" d="M 380.931-32.00C 437.794,71.016, 447.375,228.153, 224.00,222.912L 224.00,96.00 L 32.00,288.00L 224.00,480.00l0.00-124.186 
	C 491.481,362.785, 521.285,119.707, 380.931-32.00z" data-tags="undo" />
<glyph unicode="&#xe00e;" d="M 112.50,256.00 C 174.356,256.00 224.50,205.855 224.50,144.00 C 224.50,82.144 174.356,32.00 112.50,32.00 C 50.644,32.00 0.50,82.144 0.50,144.00 L 0.00,160.00 C 0.00,283.712 100.288,384.00 224.00,384.00 L 224.00,320.00 C 181.263,320.00 141.083,303.357 110.863,273.137 C 105.046,267.319 99.737,261.129 94.948,254.627 C 100.667,255.527 106.528,256.00 112.50,256.00 ZM 400.50,256.00 C 462.355,256.00 512.50,205.855 512.50,144.00 C 512.50,82.144 462.355,32.00 400.50,32.00 C 338.645,32.00 288.50,82.144 288.50,144.00 L 288.00,160.00 C 288.00,283.712 388.288,384.00 512.00,384.00 L 512.00,320.00 C 469.263,320.00 429.083,303.357 398.863,273.137 C 393.045,267.319 387.736,261.129 382.947,254.627 C 388.667,255.527 394.527,256.00 400.50,256.00 Z" data-tags="blockquote" />
<glyph unicode="&#xe00d;" d="M0.00,448.00L 512.00,448.00L 512.00,384.00L0.00,384.00zM 192.00,352.00L 512.00,352.00L 512.00,288.00L 192.00,288.00zM 192.00,256.00L 512.00,256.00L 512.00,192.00L 192.00,192.00zM 192.00,160.00L 512.00,160.00L 512.00,96.00L 192.00,96.00zM0.00,64.00L 512.00,64.00L 512.00,0.00L0.00,0.00zM 128.00,320.00 L 128.00,128.00 L 0.00,224.00 Z" data-tags="outdent" />
<glyph unicode="&#xe00c;" d="M0.00,448.00L 512.00,448.00L 512.00,384.00L0.00,384.00zM 192.00,352.00L 512.00,352.00L 512.00,288.00L 192.00,288.00zM 192.00,256.00L 512.00,256.00L 512.00,192.00L 192.00,192.00zM 192.00,160.00L 512.00,160.00L 512.00,96.00L 192.00,96.00zM0.00,64.00L 512.00,64.00L 512.00,0.00L0.00,0.00zM 0.00,128.00 L 0.00,320.00 L 128.00,224.00 Z" data-tags="indent" />
<glyph unicode="&#xe00b;" d="M 192.00,64.00L 512.00,64.00L 512.00,0.00L 192.00,0.00zM 192.00,256.00L 512.00,256.00L 512.00,192.00L 192.00,192.00zM 192.00,448.00L 512.00,448.00L 512.00,384.00L 192.00,384.00zM 96.00,480.00 L 96.00,352.00 L 64.00,352.00 L 64.00,448.00 L 32.00,448.00 L 32.00,480.00 ZM 64.00,217.00 L 64.00,192.00 L 128.00,192.00 L 128.00,160.00 L 32.00,160.00 L 32.00,233.00 L 96.00,263.00 L 96.00,288.00 L 32.00,288.00 L 32.00,320.00 L 128.00,320.00 L 128.00,247.00 ZM 128.00,128.00 L 128.00-32.00 L 32.00-32.00 L 32.00,0.00 L 96.00,0.00 L 96.00,32.00 L 32.00,32.00 L 32.00,64.00 L 96.00,64.00 L 96.00,96.00 L 32.00,96.00 L 32.00,128.00 Z" data-tags="numlist" />
<glyph unicode="&#xe00a;" d="M 192.00,448.00l 320.00,0.00 l0.00-64.00 L 192.00,384.00 L 192.00,448.00 z M 192.00,256.00l 320.00,0.00 l0.00-64.00 L 192.00,192.00 L 192.00,256.00 z M 192.00,64.00l 320.00,0.00 l0.00-64.00 L 192.00,0.00 L 192.00,64.00 zM0.00,416.00A64.00,64.00 1620.00 1,0 128.00,416A64.00,64.00 1620.00 1,0 0.00,416zM0.00,224.00A64.00,64.00 1620.00 1,0 128.00,224A64.00,64.00 1620.00 1,0 0.00,224zM0.00,32.00A64.00,64.00 1620.00 1,0 128.00,32A64.00,64.00 1620.00 1,0 0.00,32z" data-tags="bullist" />
<glyph unicode="&#xe009;" d="M 32.00,480.00L 224.00,480.00L 224.00,448.00L 32.00,448.00zM 288.00,480.00L 480.00,480.00L 480.00,448.00L 288.00,448.00zM 476.00,320.00l-28.00,0.00 L 448.00,448.00 L 320.00,448.00 l0.00-128.00 L 192.00,320.00 L 192.00,448.00 L 64.00,448.00 l0.00-128.00 L 36.00,320.00 c-19.80,0.00-36.00-16.20-36.00-36.00l0.00-280.00 c0.00-19.80, 16.20-36.00, 36.00-36.00l 152.00,0.00 c 19.80,0.00, 36.00,16.20, 36.00,36.00L 224.00,192.00 l 64.00,0.00 
	l0.00-188.00 c0.00-19.80, 16.20-36.00, 36.00-36.00l 152.00,0.00 c 19.80,0.00, 36.00,16.20, 36.00,36.00L 512.00,284.00 C 512.00,303.80, 495.80,320.00, 476.00,320.00z M 174.00,0.00L 50.00,0.00 c-9.90,0.00-18.00,7.20-18.00,16.00
	s 8.10,16.00, 18.00,16.00l 124.00,0.00 c 9.90,0.00, 18.00-7.20, 18.00-16.00S 183.90,0.00, 174.00,0.00z M 272.00,224.00l-32.00,0.00 c-8.80,0.00-16.00,7.20-16.00,16.00s 7.20,16.00, 16.00,16.00l 32.00,0.00 c 8.80,0.00, 16.00-7.20, 16.00-16.00
	S 280.80,224.00, 272.00,224.00z M 462.00,0.00L 338.00,0.00 c-9.90,0.00-18.00,7.20-18.00,16.00s 8.10,16.00, 18.00,16.00l 124.00,0.00 c 9.90,0.00, 18.00-7.20, 18.00-16.00S 471.90,0.00, 462.00,0.00z" data-tags="searchreplace" />
<glyph unicode="&#xe008;" d="M 416.00,320.00L 416.00,400.00 c0.00,8.80-7.20,16.00-16.00,16.00L 288.00,416.00 L 288.00,448.00 c0.00,17.60-14.40,32.00-32.00,32.00l-64.00,0.00 c-17.602,0.00-32.00-14.40-32.00-32.00l0.00-32.00 L 48.00,416.00 c-8.801,0.00-16.00-7.20-16.00-16.00l0.00-320.00 
	c0.00-8.80, 7.199-16.00, 16.00-16.00l 144.00,0.00 l0.00-96.00 l 224.00,0.00 l 96.00,96.00L 512.00,320.00 L 416.00,320.00 z M 192.00,447.943c 0.017,0.019, 0.036,0.039, 0.057,0.057l 63.884,0.00 
	c 0.021-0.018, 0.041-0.038, 0.059-0.057L 256.00,416.00 l-64.00,0.00 L 192.00,447.943 z M 96.00,352.00L 96.00,384.00 l 256.00,0.00 l0.00-32.00 L 96.00,352.00 z M 416.00,13.255L 416.00,64.00 l 50.745,0.00 L 416.00,13.255z M 480.00,96.00l-96.00,0.00 l0.00-96.00 
	L 224.00,0.00 L 224.00,288.00 l 256.00,0.00 L 480.00,96.00 z" data-tags="paste" />
<glyph unicode="&#xe007;" d="M 445.387,125.423c-22.827,22.778-51.864,34.536-78.973,34.536l-14.556,0.00 l-31.952,32.004l 127.81,128.019
	c 31.952,32.005, 31.952,96.014,0.00,128.019L 256.001,255.973L 64.285,448.00c-31.952-32.004-31.952-96.014,0.00-128.019l 127.811-128.017
	l-31.953-32.004l-14.557,0.00 c-27.11,0.00-56.146-11.759-78.974-34.538c-40.811-40.721-46.325-101.242-12.315-135.175
	C 69.282-24.704, 89.441-32.00, 110.795-32.00c 27.108,0.00, 56.145,11.757, 78.973,34.536c 26.792,26.732, 38.371,62.00, 33.542,92.674l 32.692,32.744
	l 32.688-32.744c-4.828-30.674, 6.753-65.941, 33.542-92.674C 345.063-20.243, 374.098-32.00, 401.206-32.00
	c 21.354,0.00, 41.512,7.296, 56.497,22.248C 491.713,24.181, 486.197,84.702, 445.387,125.423z M 176.512,57.231
	c-3.849-8.941-9.505-17.173-16.813-24.463c-7.318-7.302-15.586-12.959-24.574-16.812c-8.066-3.458-16.48-5.284-24.331-5.284
	c-7.573,0.00-18.306,1.701-26.431,9.806c-8.068,8.052-9.76,18.659-9.76,26.144c0.00,7.771, 1.821,16.105, 5.263,24.106
	c 3.85,8.942, 9.507,17.173, 16.813,24.463c 7.317,7.303, 15.586,12.957, 24.575,16.812c 8.067,3.457, 16.48,5.284, 24.332,5.284
	c 7.573,0.00, 18.306-1.70, 26.429-9.807c 8.067-8.049, 9.761-18.658, 9.761-26.142C 181.777,73.567, 179.957,65.23, 176.512,57.231z
	 M 256.002,146.702c-24.957,0.00-45.188,20.266-45.188,45.263c0.00,24.996, 20.231,45.26, 45.188,45.26s 45.186-20.264, 45.186-45.26
	C 301.188,166.966, 280.958,146.702, 256.002,146.702z M 427.636,20.479c-8.124-8.104-18.856-9.806-26.43-9.806
	c-7.852,0.00-16.265,1.826-24.333,5.284c-8.986,3.853-17.254,9.51-24.571,16.812c-7.307,7.29-12.963,15.521-16.813,24.463
	c-3.443,7.999-5.263,16.336-5.263,24.106c0.00,7.483, 1.692,18.094, 9.76,26.143c 8.123,8.104, 18.856,9.807, 26.43,9.807
	c 7.85,0.00, 16.265-1.827, 24.33-5.284c 8.989-3.854, 17.258-9.509, 24.575-16.812c 7.305-7.29, 12.962-15.521, 16.813-24.463
	c 3.442-7.999, 5.263-16.335, 5.263-24.106C 437.396,39.138, 435.702,28.53, 427.636,20.479z" data-tags="cut" />
<glyph unicode="&#xe006;" d="M0.00,448.00L 512.00,448.00L 512.00,384.00L0.00,384.00zM0.00,352.00L 512.00,352.00L 512.00,288.00L0.00,288.00zM0.00,256.00L 512.00,256.00L 512.00,192.00L0.00,192.00zM0.00,160.00L 512.00,160.00L 512.00,96.00L0.00,96.00zM0.00,64.00L 512.00,64.00L 512.00,0.00L0.00,0.00z" data-tags="alignjustify" />
<glyph unicode="&#xe005;" d="M0.00,448.00L 512.00,448.00L 512.00,384.00L0.00,384.00zM 192.00,352.00L 512.00,352.00L 512.00,288.00L 192.00,288.00zM 192.00,160.00L 512.00,160.00L 512.00,96.00L 192.00,96.00zM0.00,256.00L 512.00,256.00L 512.00,192.00L0.00,192.00zM0.00,64.00L 512.00,64.00L 512.00,0.00L0.00,0.00z" data-tags="alignright" />
<glyph unicode="&#xe004;" d="M0.00,448.00L 512.00,448.00L 512.00,384.00L0.00,384.00zM 96.00,352.00L 416.00,352.00L 416.00,288.00L 96.00,288.00zM 96.00,160.00L 416.00,160.00L 416.00,96.00L 96.00,96.00zM0.00,256.00L 512.00,256.00L 512.00,192.00L0.00,192.00zM0.00,64.00L 512.00,64.00L 512.00,0.00L0.00,0.00z" data-tags="aligncenter" />
<glyph unicode="&#xe003;" d="M0.00,448.00L 512.00,448.00L 512.00,384.00L0.00,384.00zM0.00,352.00L 320.00,352.00L 320.00,288.00L0.00,288.00zM0.00,160.00L 320.00,160.00L 320.00,96.00L0.00,96.00zM0.00,256.00L 512.00,256.00L 512.00,192.00L0.00,192.00zM0.00,64.00L 512.00,64.00L 512.00,0.00L0.00,0.00z" data-tags="alignleft" />
<glyph unicode="&#xe002;" d="M 512.00,183.771l0.00,80.458 l-79.572,7.957c-4.093,15.021-10.044,29.274-17.605,42.49l 52.298,63.919L 410.595,435.12l-63.918-52.298
	c-13.217,7.562-27.471,13.513-42.491,17.604L 296.229,480.00l-80.458,0.00 l-7.957-79.573c-15.021-4.093-29.274-10.043-42.49-17.604
	L 101.405,435.12L 44.88,378.595l 52.298-63.918c-7.562-13.216-13.513-27.47-17.605-42.49L0.00,264.229l0.00-80.458 l 79.573-7.957
	c 4.093-15.021, 10.043-29.274, 17.605-42.491L 44.88,69.405l 56.524-56.524l 63.919,52.298c 13.216-7.562, 27.47-13.514, 42.49-17.605
	L 215.771-32.00l 80.458,0.00 l 7.957,79.572c 15.021,4.093, 29.274,10.044, 42.491,17.605l 63.918-52.298l 56.524,56.524l-52.298,63.918
	c 7.562,13.217, 13.514,27.471, 17.605,42.49L 512.00,183.771z M 352.00,192.00l-64.00-64.00l-64.00,0.00 l-64.00,64.00l0.00,64.00 l 64.00,64.00l 64.00,0.00 l 64.00-64.00L 352.00,192.00 z" data-tags="fullpage" />
<glyph unicode="&#xe001;" d="M 451.716,380.285l-71.432,71.431C 364.728,467.272, 334.00,480.00, 312.00,480.00L 72.00,480.00 C 50.00,480.00, 32.00,462.00, 32.00,440.00l0.00-432.00 c0.00-22.00, 18.00-40.00, 40.00-40.00l 368.00,0.00 c 22.00,0.00, 40.00,18.00, 40.00,40.00
	L 480.00,312.00 C 480.00,334.00, 467.272,364.729, 451.716,380.285z M 429.089,357.657c 1.565-1.565, 3.125-3.487, 4.64-5.657L 352.00,352.00 L 352.00,433.728 
	c 2.17-1.515, 4.092-3.075, 5.657-4.64L 429.089,357.657z M 448.00,8.00c0.00-4.336-3.664-8.00-8.00-8.00L 72.00,0.00 c-4.336,0.00-8.00,3.664-8.00,8.00L 64.00,440.00 c0.00,4.336, 3.664,8.00, 8.00,8.00
	l 240.00,0.00 c 2.416,0.00, 5.127-0.305, 8.00-0.852L 320.00,320.00 l 127.148,0.00 c 0.547-2.873, 0.852-5.583, 0.852-8.00L 448.00,8.00 z" data-tags="newdocument" />
<glyph unicode="&#xe000;" d="M 448.00,480.00L0.00,480.00 l0.00-512.00 l 512.00,0.00 L 512.00,416.00 L 448.00,480.00z M 256.00,416.00l 64.00,0.00 l0.00-128.00 l-64.00,0.00 L 256.00,416.00 z M 448.00,32.00L 64.00,32.00 L 64.00,416.00 l 32.00,0.00 l0.00-160.00 l 288.00,0.00 L 384.00,416.00 l 37.489,0.00 L 448.00,389.491L 448.00,32.00 z" data-tags="save" />
<glyph unicode="&#xe033;" d="M 64.00,208.00L 208.00,64.00L 448.00,304.00L 384.00,368.00L 208.00,192.00L 128.00,272.00 z" />
<glyph unicode="&#x20;" horiz-adv-x="256" />
<glyph class="hidden" unicode="&#xf000;" d="M0,480L 512 -32L0 -32 z" horiz-adv-x="0" />
</font>
</defs>
</svg>
